<?xml version="1.0" standalone="no"?>
<!DOCTYPE svg PUBLIC "-//W3C//DTD SVG 1.1//EN" "http://www.w3.org/Graphics/SVG/1.1/DTD/svg11.dtd" >
<svg xmlns="http://www.w3.org/2000/svg">
  <metadata>Created by iconfont</metadata>
  <defs>
  <font id="iconfont" horiz-adv-x="1024">
    <font-face
      font-family="iconfont"
      font-weight="400"
      font-stretch="normal"
      units-per-em="1024"
      ascent="896"
      descent="-128"
    />
      <missing-glyph />
      
      <glyph glyph-name="yingyongzhongxin" unicode="&#58880;" d="M448.512 896q26.624 0 45.568-18.944t18.944-45.568l0-319.488q0-26.624-18.944-45.568t-45.568-18.944l-319.488 0q-26.624 0-45.568 18.944t-18.944 45.568l0 319.488q0 26.624 18.944 45.568t45.568 18.944l319.488 0zM961.536 896q26.624 0 45.056-18.944t18.432-45.568l0-319.488q0-26.624-18.432-45.568t-45.056-18.944l-320.512 0q-26.624 0-45.568 18.944t-18.944 45.568l0 319.488q0 26.624 18.944 45.568t45.568 18.944l320.512 0zM448.512 384q26.624 0 45.568-18.944t18.944-45.568l0-320.512q0-26.624-18.944-45.056t-45.568-18.432l-319.488 0q-26.624 0-45.568 18.432t-18.944 45.056l0 320.512q0 26.624 18.944 45.568t45.568 18.944l319.488 0zM961.536 384q26.624 0 45.056-18.944t18.432-45.568l0-320.512q0-26.624-18.432-45.056t-45.056-18.432l-320.512 0q-26.624 0-45.568 18.432t-18.944 45.056l0 320.512q0 26.624 18.944 45.568t45.568 18.944l320.512 0z"  horiz-adv-x="1026" />
      
      <glyph glyph-name="youxiang" unicode="&#59656;" d="M838.954667 661.333333H170.666667c-3.626667 0-7.168-0.448-10.56-1.322666l323.690666-323.669334a21.333333 21.333333 0 0 1 30.165334 0L838.954667 661.333333z m46.144-14.186666l-260.693334-260.693334 262.933334-262.912c5.44 7.168 8.661333 16.106667 8.661333 25.792V618.666667c0 10.944-4.117333 20.906667-10.88 28.48zM843.861333 106.666667l-249.6 249.621333-50.133333-50.133333a64 64 0 0 0-90.517333 0l-50.112 50.133333L156.373333 109.12c4.48-1.578667 9.28-2.453333 14.314667-2.453333h673.194667zM128.661333 141.781333L373.333333 386.474667 129.578667 630.186667A42.709333 42.709333 0 0 1 128 618.666667v-469.333334c0-2.56 0.213333-5.098667 0.661333-7.552zM170.666667 704h682.666666a85.333333 85.333333 0 0 0 85.333334-85.333333v-469.333334a85.333333 85.333333 0 0 0-85.333334-85.333333H170.666667a85.333333 85.333333 0 0 0-85.333334 85.333333V618.666667a85.333333 85.333333 0 0 0 85.333334 85.333333z"  horiz-adv-x="1024" />
      
      <glyph glyph-name="fuzhi" unicode="&#59568;" d="M394.666667 789.333333h448a74.666667 74.666667 0 0 0 74.666666-74.666666v-448a74.666667 74.666667 0 0 0-74.666666-74.666667H394.666667a74.666667 74.666667 0 0 0-74.666667 74.666667V714.666667a74.666667 74.666667 0 0 0 74.666667 74.666666z m0-64a10.666667 10.666667 0 0 1-10.666667-10.666666v-448a10.666667 10.666667 0 0 1 10.666667-10.666667h448a10.666667 10.666667 0 0 1 10.666666 10.666667V714.666667a10.666667 10.666667 0 0 1-10.666666 10.666666H394.666667z m245.333333-597.333333a32 32 0 0 0 64 0v-74.666667a74.666667 74.666667 0 0 0-74.666667-74.666666H181.333333a74.666667 74.666667 0 0 0-74.666666 74.666666V501.333333a74.666667 74.666667 0 0 0 74.666666 74.666667h74.666667a32 32 0 0 0 0-64h-74.666667a10.666667 10.666667 0 0 1-10.666666-10.666667v-448a10.666667 10.666667 0 0 1 10.666666-10.666666h448a10.666667 10.666667 0 0 1 10.666667 10.666666v74.666667z"  horiz-adv-x="1024" />
      
      <glyph glyph-name="a-Fullydecentralized" unicode="&#58939;" d="M469.333333-42.666667v85.333334a42.666667 42.666667 0 1 0 85.333334 0v-85.333334a42.666667 42.666667 0 1 0-85.333334 0zM469.333333 725.333333V810.666667a42.666667 42.666667 0 1 0 85.333334 0v-85.333334a42.666667 42.666667 0 1 0-85.333334 0zM682.666667-42.666667v85.333334a42.666667 42.666667 0 1 0 85.333333 0v-85.333334a42.666667 42.666667 0 1 0-85.333333 0zM682.666667 725.333333V810.666667a42.666667 42.666667 0 1 0 85.333333 0v-85.333334a42.666667 42.666667 0 1 0-85.333333 0zM170.666667 426.666667a42.666667 42.666667 0 1 0 0-85.333334H85.333333a42.666667 42.666667 0 1 0 0 85.333334h85.333334zM170.666667 213.333333a42.666667 42.666667 0 1 0 0-85.333333H85.333333a42.666667 42.666667 0 1 0 0 85.333333h85.333334zM170.666667 640a42.666667 42.666667 0 0 0 0-85.333333H85.333333a42.666667 42.666667 0 0 0 0 85.333333h85.333334zM938.666667 426.666667a42.666667 42.666667 0 1 0 0-85.333334h-85.333334a42.666667 42.666667 0 1 0 0 85.333334h85.333334zM938.666667 213.333333a42.666667 42.666667 0 1 0 0-85.333333h-85.333334a42.666667 42.666667 0 1 0 0 85.333333h85.333334zM938.666667 640a42.666667 42.666667 0 1 0 0-85.333333h-85.333334a42.666667 42.666667 0 1 0 0 85.333333h85.333334zM256-42.666667v85.333334a42.666667 42.666667 0 1 0 85.333333 0v-85.333334a42.666667 42.666667 0 1 0-85.333333 0zM256 725.333333V810.666667a42.666667 42.666667 0 0 0 85.333333 0v-85.333334a42.666667 42.666667 0 0 0-85.333333 0zM810.666667 640a42.666667 42.666667 0 0 1-42.666667 42.666667H256a42.666667 42.666667 0 0 1-42.666667-42.666667v-512a42.666667 42.666667 0 0 1 42.666667-42.666667h512a42.666667 42.666667 0 0 1 42.666667 42.666667V640z m85.333333-512a128 128 0 0 0-128-128H256a128 128 0 0 0-128 128V640a128 128 0 0 0 128 128h512a128 128 0 0 0 128-128v-512zM384 512v-256h256V512H384z m341.333333-256a85.333333 85.333333 0 0 0-85.333333-85.333333H384a85.333333 85.333333 0 0 0-85.333333 85.333333V512a85.333333 85.333333 0 0 0 85.333333 85.333333h256a85.333333 85.333333 0 0 0 85.333333-85.333333v-256z"  horiz-adv-x="1024" />
      
      <glyph glyph-name="appstore-copy" unicode="&#61349;" d="M179.2 85.333333l-4.266667-4.266666c-17.066667-25.6-8.533333-59.733333 17.066667-72.533334s59.733333-8.533333 72.533333 17.066667l4.266667 4.266667 51.2 89.6h-85.333333c-21.333333 0-42.666667-12.8-55.466667-34.133334z m320 192h-85.333333l238.933333 409.6c17.066667 25.6 8.533333 59.733333-17.066667 72.533334s-59.733333 8.533333-72.533333-17.066667l-4.266667-4.266667L512 657.066667l-46.933333 81.066666c-12.8 29.866667-46.933333 38.4-72.533334 25.6s-38.4-42.666667-21.333333-72.533333c0 0 0-4.266667 4.266667-4.266667l76.8-136.533333-157.866667-273.066667H136.533333c-29.866667 0-51.2-25.6-51.2-51.2 0-29.866667 25.6-55.466667 51.2-55.466666h469.333334l-38.4 64c-12.8 25.6-38.4 42.666667-68.266667 42.666666z m388.266667 0h-153.6l-128 221.866667-25.6-42.666667c-21.333333-38.4-21.333333-89.6 0-128l174.933333-302.933333c12.8-25.6 46.933333-38.4 72.533333-25.6 25.6 12.8 38.4 46.933333 25.6 72.533333 0 0 0 4.266667-4.266666 4.266667L793.6 170.666667h89.6c29.866667 0 51.2 25.6 51.2 51.2 4.266667 29.866667-21.333333 55.466667-46.933333 55.466666z"  horiz-adv-x="1024" />
      
      <glyph glyph-name="googleplay-copy" unicode="&#61350;" d="M82.860563-31.546785c-1.423992 10.356306-4.142522 20.712612-4.142522 30.939464-0.258908 254.765132-0.258908 509.40081-0.129454 764.165942 0 7.76723 1.6829 15.663913 2.459622 23.431143C222.541242 654.558499 358.985576 516.949081 494.523733 378.433485c-137.221057-136.573788-274.442114-273.277029-411.66317-409.98027zM494.523733 378.433485C358.985576 516.949081 222.541242 654.558499 81.048209 787.119218c23.69005 77.413389 95.536924 110.94193 164.665269 72.105781C402.093701 771.066943 556.791024 680.060903 712.265071 590.090493 641.453827 519.408703 570.642584 448.726914 499.701886 378.045124c-1.6829 0-3.3658 0.129454-5.178153 0.388361zM494.523733 378.433485c1.6829-0.258908 3.495253-0.388361 5.178153-0.388361 69.257798-70.552336 138.515595-141.234125 207.773393-211.786461-154.697323-89.193687-308.876832-179.293551-464.350878-267.1927-64.468006-36.505979-149.51917 2.459623-160.393292 69.516706 137.350511 136.573788 274.571567 273.277029 411.792624 409.850816zM707.475279 166.258663c-69.257798 70.552336-138.515595 141.234125-207.773393 211.786461C570.642584 448.726914 641.453827 519.408703 712.265071 589.961039c67.574898-38.318333 136.055972-74.953766 202.336331-115.472814 74.565404-45.567747 75.989397-144.08211 2.200716-189.649857C848.579951 242.895328 777.380346 205.612626 707.475279 166.258663z"  horiz-adv-x="1024" />
      
      <glyph glyph-name="APK-copy" unicode="&#61351;" d="M643.64544 896a92.16 92.16 0 0 0 65.09568-26.9312l187.61728-187.21792a92.16 92.16 0 0 0 27.05408-65.2288v-120.6272A80.10752 80.10752 0 0 0 1003.52 415.90784v-319.7952a80.10752 80.10752 0 0 0-77.55776-80.06656l-2.54976-0.03072v-48.00512c0-53.02272-43.02848-96-96.12288-96H186.4704c-53.0944 0-96.12288 42.97728-96.12288 96v48.00512A80.10752 80.10752 0 0 0 10.24 96.1024v319.7952a80.10752 80.10752 0 0 0 77.55776 80.06656l2.54976 0.04096V800C90.34752 853.02272 133.376 896 186.4704 896h457.17504zM827.2896 16.00512H186.4704v-17.28512a30.72 30.72 0 0 1 30.72-30.72h579.3792a30.72 30.72 0 0 1 30.72 30.72v17.28512zM400.77312 336.50688h-52.992L253.2864 176.64h44.88192l19.12832 34.08896h62.6688l4.15744-34.08896h42.41408l-25.76384 159.86688z m119.13216 0h-47.24736L438.784 176.64h42.41408l12.70784 58.2656c4.95616-0.21504 9.3184-0.38912 13.1072-0.50176 3.7888-0.1024 6.99392-0.16384 9.6256-0.16384 21.44256 0 38.28736 5.25312 50.50368 15.74912 12.22656 10.496 18.33984 24.90368 18.33984 43.20256 0 14.848-5.30432 25.78432-15.91296 32.78848-10.61888 7.0144-27.17696 10.52672-49.664 10.52672z m140.51328 0h-42.41408L583.91552 176.64h42.63936l16.31232 76.9536 38.7072-76.9536h49.50016l-46.6944 82.46272 74.58816 77.40416h-53.88288l-58.50112-65.5872 13.83424 65.5872z m-291.25632-31.2832l7.64928-64.34816H333.7216l35.4304 64.34816z m149.72928 2.47808c8.09984 0 14.29504-1.60768 18.56512-4.83328 4.28032-3.2256 6.41024-7.91552 6.41024-14.06976 0-7.49568-2.84672-13.3632-8.5504-17.60256-5.69344-4.23936-13.68064-6.3488-23.9616-6.3488H500.1216l8.88832 42.8544h9.89184z m79.2064 499.97824H217.1904a30.72 30.72 0 0 1-30.72-30.72v-280.95488h640.8192v81.5616H690.28864c-50.8928 0.01024-92.14976 41.2672-92.16 92.16l-0.03072 137.95328z m96.12288-59.84256v-58.91072a15.36 15.36 0 0 1 15.36-15.36h59.0848l-74.4448 74.27072z"  horiz-adv-x="1024" />
      
      <glyph glyph-name="appstore" unicode="&#59689;" d="M179.2 85.333333l-4.266667-4.266666c-17.066667-25.6-8.533333-59.733333 17.066667-72.533334s59.733333-8.533333 72.533333 17.066667l4.266667 4.266667 51.2 89.6h-85.333333c-21.333333 0-42.666667-12.8-55.466667-34.133334z m320 192h-85.333333l238.933333 409.6c17.066667 25.6 8.533333 59.733333-17.066667 72.533334s-59.733333 8.533333-72.533333-17.066667l-4.266667-4.266667L512 657.066667l-46.933333 81.066666c-12.8 29.866667-46.933333 38.4-72.533334 25.6s-38.4-42.666667-21.333333-72.533333c0 0 0-4.266667 4.266667-4.266667l76.8-136.533333-157.866667-273.066667H136.533333c-29.866667 0-51.2-25.6-51.2-51.2 0-29.866667 25.6-55.466667 51.2-55.466666h469.333334l-38.4 64c-12.8 25.6-38.4 42.666667-68.266667 42.666666z m388.266667 0h-153.6l-128 221.866667-25.6-42.666667c-21.333333-38.4-21.333333-89.6 0-128l174.933333-302.933333c12.8-25.6 46.933333-38.4 72.533333-25.6 25.6 12.8 38.4 46.933333 25.6 72.533333 0 0 0 4.266667-4.266666 4.266667L793.6 170.666667h89.6c29.866667 0 51.2 25.6 51.2 51.2 4.266667 29.866667-21.333333 55.466667-46.933333 55.466666z"  horiz-adv-x="1024" />
      
      <glyph glyph-name="googleplay" unicode="&#58978;" d="M82.86056297-31.54678518000003c-1.4239921 10.35630617-4.14252247 20.71261235-4.14252247 30.93946468-0.25890765 254.76513185-0.25890765 509.40080987-0.12945383 764.16594174 0 7.76722963 1.68289975 15.66391309 2.45962272 23.43114271C222.54124247 654.55849876 358.9855763 516.9490805 494.52373333 378.43348543c-137.2210568-136.57378765-274.44211358-273.27702914-411.66317036-409.98027061zM494.52373333 378.43348543C358.9855763 516.9490805 222.54124247 654.55849876 81.04820939 787.11921778c23.69005037 77.41338864 95.53692445 110.94192987 164.66526814 72.10578172C402.09370075 771.0669432 556.79102419 680.0609027200001 712.26507061 590.09049283 641.45382717 519.4087032 570.6425837 448.72691358 499.70188642 378.04512394999995c-1.68289975 0-3.3657995 0.12945383-5.17815309 0.38836148zM494.52373333 378.43348543c1.68289975-0.25890765 3.49525333-0.38836148 5.17815309-0.38836148 69.25779753-70.55233581 138.51559506-141.23412543 207.7733926-211.78646123-154.69732347-89.19368691-308.87683161-179.29355061-464.35087804-267.19269925-64.46800592-36.50597925-149.51917037 2.45962272-160.39329184 69.51670517 137.35051061 136.57378765 274.57156741 273.27702914 411.79262419 409.85081679zM707.47527902 166.25866271999996c-69.25779753 70.55233581-138.51559506 141.23412543-207.7733926 211.78646123C570.6425837 448.72691358 641.45382717 519.4087032 712.26507061 589.96103902c67.57489778-38.31833283 136.05597235-74.95376592 202.33633186-115.47281384 74.56540445-45.56774717 75.98939653-144.08210963 2.20071506-189.64985679C848.57995061 242.89532839000003 777.38034569 205.61262617 707.47527902 166.25866271999996z"  horiz-adv-x="1024" />
      
      <glyph glyph-name="APK" unicode="&#59017;" d="M643.64544 896a92.16 92.16 0 0 0 65.09568-26.9312l187.61728-187.21792a92.16 92.16 0 0 0 27.05408-65.2288v-120.6272A80.10752 80.10752 0 0 0 1003.52 415.90784v-319.7952a80.10752 80.10752 0 0 0-77.55776-80.06656l-2.54976-0.03072v-48.00512c0-53.02272-43.02848-96-96.12288-96H186.4704c-53.0944 0-96.12288 42.97728-96.12288 96v48.00512A80.10752 80.10752 0 0 0 10.24 96.1024v319.7952a80.10752 80.10752 0 0 0 77.55776 80.06656l2.54976 0.04096V800C90.34752 853.02272 133.376 896 186.4704 896h457.17504zM827.2896 16.00512H186.4704v-17.28512a30.72 30.72 0 0 1 30.72-30.72h579.3792a30.72 30.72 0 0 1 30.72 30.72v17.28512zM400.77312 336.50688h-52.992L253.2864 176.64h44.88192l19.12832 34.08896h62.6688l4.15744-34.08896h42.41408l-25.76384 159.86688z m119.13216 0h-47.24736L438.784 176.64h42.41408l12.70784 58.2656c4.95616-0.21504 9.3184-0.38912 13.1072-0.50176 3.7888-0.1024 6.99392-0.16384 9.6256-0.16384 21.44256 0 38.28736 5.25312 50.50368 15.74912 12.22656 10.496 18.33984 24.90368 18.33984 43.20256 0 14.848-5.30432 25.78432-15.91296 32.78848-10.61888 7.0144-27.17696 10.52672-49.664 10.52672z m140.51328 0h-42.41408L583.91552 176.64h42.63936l16.31232 76.9536 38.7072-76.9536h49.50016l-46.6944 82.46272 74.58816 77.40416h-53.88288l-58.50112-65.5872 13.83424 65.5872z m-291.25632-31.2832l7.64928-64.34816H333.7216l35.4304 64.34816z m149.72928 2.47808c8.09984 0 14.29504-1.60768 18.56512-4.83328 4.28032-3.2256 6.41024-7.91552 6.41024-14.06976 0-7.49568-2.84672-13.3632-8.5504-17.60256-5.69344-4.23936-13.68064-6.3488-23.9616-6.3488H500.1216l8.88832 42.8544h9.89184z m79.2064 499.97824H217.1904a30.72 30.72 0 0 1-30.72-30.72v-280.95488h640.8192v81.5616H690.28864c-50.8928 0.01024-92.14976 41.2672-92.16 92.16l-0.03072 137.95328z m96.12288-59.84256v-58.91072a15.36 15.36 0 0 1 15.36-15.36h59.0848l-74.4448 74.27072z"  horiz-adv-x="1024" />
      
      <glyph glyph-name="Predict" unicode="&#58935;" d="M896 341.333333V554.666667h-213.333333a42.666667 42.666667 0 0 0 0 85.333333h256a42.666667 42.666667 0 0 0 42.666666-42.666667v-256a42.666667 42.666667 0 0 0-85.333333 0zM908.501333 627.498667a42.666667 42.666667 0 0 0 60.330667-60.330667l-362.666667-362.666667a42.666667 42.666667 0 0 0-60.330666 0l-183.210667 183.168-247.125333-247.168a42.666667 42.666667 0 0 0-60.373334 60.330667l277.376 277.333333 3.114667 2.858667a42.666667 42.666667 0 0 0 57.173333-2.858667l183.168-183.168 332.544 332.501334z"  horiz-adv-x="1024" />
      
      <glyph glyph-name="a-DeveloperDocs" unicode="&#58936;" d="M469.333333 0V597.333333a42.666667 42.666667 0 1 0 85.333334 0v-597.333333a42.666667 42.666667 0 1 0-85.333334 0zM682.666667 725.333333a128 128 0 0 1-128-128 42.666667 42.666667 0 1 0-85.333334 0 128 128 0 0 1-128 128H128v-554.666666h256a170.666667 170.666667 0 0 0 128-57.813334A170.666667 170.666667 0 0 0 640 170.666667h256V725.333333h-213.333333z m298.666666-554.666666a85.333333 85.333333 0 0 0-85.333333-85.333334h-256a85.333333 85.333333 0 0 1-85.333333-85.333333 42.666667 42.666667 0 1 0-85.333334 0 85.333333 85.333333 0 0 1-85.333333 85.333333H128a85.333333 85.333333 0 0 0-85.333333 85.333334V725.333333a85.333333 85.333333 0 0 0 85.333333 85.333334h213.333333a213.333333 213.333333 0 0 0 170.666667-85.376A213.333333 213.333333 0 0 0 682.666667 810.666667h213.333333a85.333333 85.333333 0 0 0 85.333333-85.333334v-554.666666z"  horiz-adv-x="1024" />
      
      <glyph glyph-name="a-Privacybydefault" unicode="&#58937;" d="M853.333333 341.333333a42.666667 42.666667 0 0 1-42.666666 42.666667H213.333333a42.666667 42.666667 0 0 1-42.666666-42.666667v-298.666666a42.666667 42.666667 0 0 1 42.666666-42.666667h597.333334a42.666667 42.666667 0 0 1 42.666666 42.666667v298.666666z m85.333334-298.666666a128 128 0 0 0-128-128H213.333333a128 128 0 0 0-128 128v298.666666a128 128 0 0 0 128 128h597.333334a128 128 0 0 0 128-128v-298.666666zM682.666667 426.666667V597.333333a170.666667 170.666667 0 0 1-341.333334 0v-170.666666a42.666667 42.666667 0 1 0-85.333333 0V597.333333a256 256 0 0 0 512 0v-170.666666a42.666667 42.666667 0 1 0-85.333333 0z"  horiz-adv-x="1024" />
      
      <glyph glyph-name="a-MoreSubstations" unicode="&#58938;" d="M810.666667 426.666667a42.666667 42.666667 0 0 0 0-85.333334H213.333333a42.666667 42.666667 0 1 0 0 85.333334h597.333334zM469.333333 85.333333V682.666667a42.666667 42.666667 0 1 0 85.333334 0v-597.333334a42.666667 42.666667 0 0 0-85.333334 0z"  horiz-adv-x="1024" />
      
      <glyph glyph-name="a-AnonymousID" unicode="&#58940;" d="M768 469.333333a42.666667 42.666667 0 1 0 0-85.333333c-27.733333 0-45.44-4.693333-57.386667-12.16-11.093333-6.912-21.845333-19.114667-30.165333-43.989333a42.666667 42.666667 0 1 0-80.896 26.965333c13.013333 39.125333 34.218667 69.589333 65.834667 89.344 30.72 19.2 66.389333 25.173333 102.613333 25.173333zM896 554.666667a42.666667 42.666667 0 0 1-42.666667 42.666666h-127.104a298.666667 298.666667 0 0 1-185.984-74.624 42.666667 42.666667 0 0 0-56.490666 0A298.666667 298.666667 0 0 1 297.728 597.333333H170.666667a42.666667 42.666667 0 0 1-42.666667-42.666666v-170.666667a170.666667 170.666667 0 0 1 170.666667-170.666667l1.578666-0.042666A384 384 0 0 0 512 139.946667 384 384 0 0 0 723.754667 213.333333L725.333333 213.333333a170.666667 170.666667 0 0 1 170.666667 170.666667V554.666667z m85.333333-170.666667a256 256 0 0 0-254.421333-255.957333 298.666667 298.666667 0 0 1-186.666667-74.666667 42.666667 42.666667 0 0 0-56.490666 0 298.666667 298.666667 0 0 1-186.666667 74.666667h-0.042667A255.957333 255.957333 0 0 0 42.666667 384V554.666667a128 128 0 0 0 128 128h128l1.578666-0.042667A384 384 0 0 0 512 609.28 384 384 0 0 0 723.754667 682.666667L725.333333 682.666667h128a128 128 0 0 0 128-128v-170.666667zM256 469.333333c36.224 0 71.893333-5.973333 102.613333-25.173333 31.573333-19.754667 52.821333-50.218667 65.834667-89.344a42.666667 42.666667 0 1 0-80.896-26.965333c-8.32 24.874667-19.114667 37.077333-30.165333 43.946666C301.44 379.306667 283.733333 384 256 384a42.666667 42.666667 0 1 0 0 85.333333z"  horiz-adv-x="1024" />
      
      <glyph glyph-name="a-ActiveNodes" unicode="&#58941;" d="M896 725.333333a42.666667 42.666667 0 0 1-42.666667 42.666667H170.666667a42.666667 42.666667 0 0 1-42.666667-42.666667v-170.666666a42.666667 42.666667 0 0 1 42.666667-42.666667h682.666666a42.666667 42.666667 0 0 1 42.666667 42.666667V725.333333z m85.333333-170.666666a128 128 0 0 0-128-128H170.666667a128 128 0 0 0-128 128V725.333333a128 128 0 0 0 128 128h682.666666a128 128 0 0 0 128-128v-170.666666zM896 213.333333a42.666667 42.666667 0 0 1-42.666667 42.666667H170.666667a42.666667 42.666667 0 0 1-42.666667-42.666667v-170.666666a42.666667 42.666667 0 0 1 42.666667-42.666667h682.666666a42.666667 42.666667 0 0 1 42.666667 42.666667v170.666666z m85.333333-170.666666a128 128 0 0 0-128-128H170.666667a128 128 0 0 0-128 128v170.666666a128 128 0 0 0 128 128h682.666666a128 128 0 0 0 128-128v-170.666666zM256.426667 682.666667a42.666667 42.666667 0 0 0 0-85.333334H256a42.666667 42.666667 0 0 0 0 85.333334h0.426667zM256.426667 170.666667a42.666667 42.666667 0 1 0 0-85.333334H256a42.666667 42.666667 0 1 0 0 85.333334h0.426667z"  horiz-adv-x="1024" />
      
      <glyph glyph-name="a-AIAssistants" unicode="&#58942;" d="M469.333333 554.666667V682.666667H341.333333a42.666667 42.666667 0 0 0 0 85.333333h170.666667a42.666667 42.666667 0 0 0 42.666667-42.666667v-170.666666a42.666667 42.666667 0 0 0-85.333334 0zM810.666667 469.333333a42.666667 42.666667 0 0 1-42.666667 42.666667H256a42.666667 42.666667 0 0 1-42.666667-42.666667v-341.333333a42.666667 42.666667 0 0 1 42.666667-42.666667h512a42.666667 42.666667 0 0 1 42.666667 42.666667v341.333333z m85.333333-341.333333a128 128 0 0 0-128-128H256a128 128 0 0 0-128 128v341.333333a128 128 0 0 0 128 128h512a128 128 0 0 0 128-128v-341.333333zM170.666667 341.333333a42.666667 42.666667 0 0 0 0-85.333333H85.333333a42.666667 42.666667 0 0 0 0 85.333333h85.333334zM938.666667 341.333333a42.666667 42.666667 0 0 0 0-85.333333h-85.333334a42.666667 42.666667 0 0 0 0 85.333333h85.333334zM597.333333 256v85.333333a42.666667 42.666667 0 0 0 85.333334 0v-85.333333a42.666667 42.666667 0 0 0-85.333334 0zM341.333333 256v85.333333a42.666667 42.666667 0 0 0 85.333334 0v-85.333333a42.666667 42.666667 0 0 0-85.333334 0z"  horiz-adv-x="1024" />
      
      <glyph glyph-name="Uniswap" unicode="&#58914;" d="M405.508437 663.049706c-11.092871 1.621266-11.647515 2.133244-6.399733 2.687888 10.068914 1.578601 33.278613-0.511979 49.661931-4.223824 38.057081-8.959627 72.359652-32.211991 108.795466-72.914295l9.514271-11.092871 13.738094 2.133244c58.578893 9.51427 118.821716 2.133244 168.95296-21.11912 13.738094-6.357068 35.411858-18.985876 38.057081-22.185742 1.066622-1.066622 2.602558-7.893004 3.711845-14.804716 3.66918-24.7883 2.09058-43.262197-5.845089-57.512271-4.223824-7.935669-4.223824-10.068914-1.578601-16.895296 2.133244-5.290446 8.447648-9.002292 14.250073-9.002291 12.671472 0 25.854923 20.052498 32.211991 48.08333l2.645223 11.092871 4.735803-5.290447c26.96421-30.121412 48.08333-71.847673 51.197866-101.414441l1.109288-7.893004-4.778468 6.826382a89.297613 89.297613 0 0 1-25.300279 26.96421c-17.961918 12.116828-36.990459 15.828674-87.164368 18.473897-45.395442 2.602558-71.293029 6.314404-96.635974 14.804716-43.304862 14.207408-65.490605 32.681305-116.731136 100.859798-22.655056 30.078747-36.947794 46.419399-51.197867 60.157493-31.145369 30.121412-62.290738 45.950085-102.950377 52.307154zM798.878713 596.023166c1.066622 20.052498 3.66918 33.278613 9.514271 45.395442 2.133244 4.778468 4.223824 9.002292 4.735802 9.002291 0.511979 0-0.511979-3.711845-2.133244-7.935669-4.181159-11.60485-4.693138-27.988167-2.09058-46.504729 3.711845-23.721678 5.290446-26.87888 30.633391-52.776468 11.60485-12.116828 25.342944-27.476188 30.63339-33.790592l8.959627-11.60485-8.959627 8.447648c-11.092871 10.538228-36.435815 30.63339-42.23824 33.278614-3.711845 2.133244-4.266489 2.133244-6.869047-0.554644-2.133244-2.133244-2.645223-5.247781-2.645223-20.607141-0.511979-23.721678-3.711845-38.526395-11.60485-53.84309-4.266489-7.935669-4.778468-6.314404-1.066622 2.645223 2.645223 6.869047 3.157202 10.026249 3.157201 32.72397 0 45.950085-5.247781 57.042957-37.502437 75.516853a394.436898 394.436898 0 0 1-29.566768 15.35936 116.816466 116.816466 0 0 0-14.250073 6.826383c1.066622 1.066622 32.211991-7.893004 44.371484-13.226116 18.473897-7.381026 21.631099-7.893004 23.764344-7.381026 1.578601 1.621266 2.645223 5.802425 3.157201 19.028541zM427.096871 517.34911c-22.185742 30.63339-36.435815 78.162077-33.278613 113.53127l1.066622 11.092871 5.290446-1.066622c9.51427-1.578601 25.897588-7.935669 33.790592-12.671472 21.11912-12.671472 30.63339-30.078747 39.635682-73.383609 2.602558-12.671472 6.314404-27.476188 7.893004-32.211991 2.645223-7.935669 12.671472-26.452231 21.11912-38.057081 5.802425-8.447648 2.133244-12.671472-11.092871-11.60485-20.052498 2.133244-47.016708 20.607141-64.423982 44.371484z m344.860297-229.707762c-104.571643 42.23824-141.519437 78.674055-141.519436 140.452815 0 8.959627 0.511979 16.383317 0.511978 16.383317 0.511979 0 4.223824-3.199867 8.959627-6.911712 21.161785-16.895296 44.883463-24.276322 110.928711-33.790592 38.526395-5.75976 60.712137-10.026249 80.764635-16.895296 63.912004-21.11912 103.547686-64.423982 113.061956-123.002875 2.602558-16.895296 1.023957-49.107287-3.199867-66.002583-3.711845-13.226116-14.250073-37.545102-16.895296-38.057081-0.511979 0-1.578601 2.645223-1.578601 6.869047-1.066622 22.185742-12.159493 43.304862-30.63339 59.68818-22.185742 18.985876-50.728553 33.278613-120.400317 61.26678z m-73.938252-17.449939a124.496146 124.496146 0 0 1-5.290446 22.185742l-2.645223 7.893004 4.778467-5.802424c6.826382-7.893004 12.116828-17.407275 16.895296-30.590726 3.66918-10.068914 3.66918-13.226116 3.669181-29.609433 0-15.828674-0.511979-19.497854-3.669181-28.500146-4.693138-13.26878-12.287488-25.385609-22.185742-35.411857-19.02854-19.497854-43.816841-30.036082-79.228699-34.81455-6.357068-0.554644-24.318987-2.133244-40.104996-3.157202-39.635682-2.133244-66.045248-6.399733-89.809591-14.804716-3.157202-1.066622-6.314404-2.133244-6.826382-1.578601-1.109287 1.066622 15.27403 10.538228 28.500146 16.895296 18.473897 8.959627 37.459773 13.738094 79.186034 21.11912 20.607141 3.157202 41.726261 7.381026 47.016707 9.51427 52.307154 16.340652 78.162077 57.042957 69.714429 106.662223zM746.102246 185.20295c-13.738094 30.078747-16.895296 58.578893-9.51427 85.543102 1.066622 2.645223 2.133244 5.290446 3.157201 5.290446 1.066622 0 4.266489-1.621266 7.423691-3.711845 6.314404-4.223824 19.497854-11.60485 53.331111-30.078747 42.750219-23.252364 67.069205-41.214283 83.964502-61.778759 14.762052-18.004583 23.764343-38.56906 27.945502-63.912003 2.687888-14.250073 1.066622-48.595309-2.645223-62.888047-11.562185-44.840798-37.971751-80.764635-76.540811-101.371776-3.541186-2.047915-7.253031-3.83984-11.092871-5.290446-0.511979 0 1.578601 5.290446 4.735803 11.647514 12.714137 26.921545 14.292738 52.776468 4.778467 81.873922-5.84509 17.919253-17.961918 39.593017-42.23824 76.028833-29.012124 42.23824-35.923837 53.331111-43.304862 68.647806z m-393.412941-161.571935c39.081038 32.681305 87.079038 55.976334 131.493187 63.314696 18.985876 3.199867 50.685888 2.133244 68.093163-2.602559 27.988167-7.381026 53.331111-23.252364 66.557227-42.792883 12.671472-19.02854 18.516562-35.369193 24.276322-71.805008 2.133244-14.292738 4.735803-29.012124 5.290446-32.211992 4.266489-19.02854 12.671472-33.790592 23.252364-41.726261 16.383317-12.159493 44.883463-12.671472 72.828966-2.133244 4.778468 1.621266 9.002292 3.199867 9.002292 2.645223 1.066622-1.023957-13.226116-10.538228-22.697721-15.274031-13.226116-6.911712-23.764343-8.959627-38.014416-8.959626-25.385609 0-47.016708 13.140786-64.423983 39.550352-3.711845 5.290446-11.092871 20.607141-17.449939 34.857214-18.473897 42.792884-27.988167 55.464356-49.619266 69.714429-19.02854 12.159493-43.304862 14.762052-61.821424 5.802425-24.318987-11.60485-30.590725-42.750219-13.69543-61.77876 6.826382-7.935669 19.540519-14.250073 30.078747-15.786009a32.126661 32.126661 0 0 1 36.435815 32.169327c0 12.671472-4.735803 20.052498-17.449939 25.854922-16.895296 7.423691-35.369193-1.023957-34.81455-17.407274 0-6.826382 3.157202-11.092871 10.026249-14.250073 4.223824-2.133244 4.223824-2.133244 1.066622-1.621266-15.35936 3.199867-19.02854 22.185742-6.869047 34.345236 14.762052 14.804716 45.950085 8.447648 56.488313-12.159494 4.266489-8.447648 4.778468-25.342944 1.066622-35.923836-8.959627-23.2097-34.345236-35.326528-60.157493-28.500146-17.492604 4.778468-24.87363 9.51427-45.99275 31.145369-36.990459 38.057081-51.197867 45.438107-104.017 53.331111l-10.026249 1.621266 11.092872 10.580892zM74.855548 873.302279c123.04554-149.455106 312.648306-381.850756 322.162576-394.522228 7.893004-10.495563 4.735803-20.564476-8.490313-27.945502-7.381026-4.266489-22.655056-8.447648-30.078746-8.447648a37.971751 37.971751 0 0 0-25.342944 11.092871c-4.735803 4.735803-25.342944 34.857214-71.805009 107.174201a6851.981167 6851.981167 0 0 1-66.002583 101.969084c-2.133244 1.023957-2.133244 1.023957 62.290738-114.085913C298.248906 476.177493 311.475022 450.279905 311.475022 447.122703c0-6.869047-2.133244-10.580892-10.580893-20.052498-14.250073-15.871339-20.607141-33.790592-25.342944-71.293029-5.290446-41.726261-19.540519-71.293029-60.242823-121.466939-23.764343-29.566768-27.476188-34.857214-33.278613-47.016708-7.381026-14.762052-9.471605-23.2097-10.538228-42.23824-1.066622-20.052498 1.066622-32.72397 6.826382-51.75251 5.333111-16.895296 11.092871-27.988167 25.385609-49.619266 12.116828-19.02854 19.540519-33.278613 19.540519-38.569059 0-4.223824 1.023957-4.223824 20.052498 0 45.395442 10.580892 82.940544 28.500146 103.505021 50.685888 12.671472 13.738094 15.871339 21.161785 15.871339 40.14766 0 12.159493-0.554644 14.804716-3.711846 22.185742-5.290446 11.60485-15.35936 21.11912-36.990458 35.881172-28.500146 19.540519-40.659639 35.411858-43.774177 56.530978-2.687888 17.919253 0.511979 30.078747 16.340653 63.35736 16.340652 34.345236 20.607141 48.595309 23.252364 83.452523 1.535936 22.185742 4.181159 31.145369 10.495563 38.014416 6.911712 7.381026 12.714137 10.026249 29.097454 12.159493 26.921545 3.66918 44.371485 10.580892 58.066914 23.764343 12.159493 11.092871 17.44994 22.185742 17.961919 38.526395l0.554643 12.159494-6.869047 7.381025C402.265906 517.903754 58.47223 896 56.893629 896c-0.554644 0 7.935669-10.026249 17.961919-22.697721z m162.126578-750.944711a21.759093 21.759093 0 0 1-6.826382 29.05479c-8.959627 5.802425-22.740386 3.157202-22.740386-4.778468 0-2.133244 1.066622-4.223824 4.266489-5.247781 4.693138-2.645223 5.247781-5.290446 1.535936-11.092871s-3.711845-11.092871 1.066622-14.804717c7.423691-5.802425 17.407275-2.645223 22.697721 6.826383z m213.879088 277.748428c-12.671472-3.66918-24.7883-17.407275-28.500146-31.145369-2.133244-8.447648-1.066622-23.764343 2.645223-28.500146 5.802425-7.423691 11.092871-9.51427 25.897588-9.51427 29.012124 0 53.84309 12.671472 56.488313 27.988167 2.645223 12.671472-8.447648 30.078747-23.764343 38.014416-7.935669 4.223824-24.318987 5.802425-32.766635 3.157202z m33.833257-26.366902c4.181159 6.314404 2.602558 13.183451-5.290446 17.919254-14.250073 9.002292-35.923837 1.621266-35.923837-12.116829 0-6.869047 11.092871-14.250073 21.673764-14.250073 6.826382 0 16.340652 4.181159 19.540519 8.447648z"  horiz-adv-x="1024" />
      
      <glyph glyph-name="WalletTools" unicode="&#58915;" d="M768 341.333333a42.666667 42.666667 0 0 1-30.165333-72.832l3.114666-2.816A42.666667 42.666667 0 0 1 768 256h128v85.333333h-128zM213.333333 725.333333a42.666667 42.666667 0 0 1 0-85.333333h554.666667V725.333333H213.333333z m640-85.333333a85.333333 85.333333 0 0 0 85.333334-85.333333v-139.52A85.333333 85.333333 0 0 0 981.333333 341.333333v-85.333333a85.333333 85.333333 0 0 0-24.96-60.373333h-0.042666A85.333333 85.333333 0 0 0 896 170.666667h-128a128 128 0 1 0 0 256h85.333333V554.666667H213.333333a128 128 0 1 0 0 256h554.666667a85.376 85.376 0 0 0 85.333333-85.333334v-85.333333zM85.333333 85.333333V682.666667a42.666667 42.666667 0 0 0 85.333334 0v-597.333334a42.666667 42.666667 0 0 1 42.666666-42.666666h640v170.666666a42.666667 42.666667 0 0 0 85.333334 0v-170.666666a85.333333 85.333333 0 0 0-85.333334-85.333334H213.333333a128 128 0 0 0-128 128z"  horiz-adv-x="1024" />
      
      <glyph glyph-name="SDK" unicode="&#58916;" d="M853.333333 128a42.666667 42.666667 0 1 0 0-85.333333h-341.333333a42.666667 42.666667 0 1 0 0 85.333333h341.333333zM140.501333 712.832a42.666667 42.666667 0 0 0 60.330667 0l256-256a42.666667 42.666667 0 0 0 0-60.330667l-256-256a42.666667 42.666667 0 1 0-60.330667 60.330667L366.336 426.666667 140.501333 652.501333a42.666667 42.666667 0 0 0 0 60.330667z"  horiz-adv-x="1024" />
      
      <glyph glyph-name="a-Yourkeyisyouridentity" unicode="&#58917;" d="M452.906667 721.792a501.034667 501.034667 0 0 0 514.389333-287.829333l8.192-18.773334 0.554667-1.408a85.333333 85.333333 0 0 0 0-59.392l-0.554667-1.408c-17.109333-41.557333-39.808-80.64-67.370667-116.138666a42.666667 42.666667 0 1 0-67.413333 52.309333A415.914667 415.914667 0 0 1 896 384.085333a415.744 415.744 0 0 1-432.938667 253.013334 42.666667 42.666667 0 0 0-10.112 84.693333zM389.248 502.528a42.666667 42.666667 0 1 0 61.397333-59.221333 85.376 85.376 0 0 1 60.586667-144.64 85.376 85.376 0 0 1 60.074667 23.978666 42.666667 42.666667 0 0 0 59.306666-61.397333 170.752 170.752 0 0 0-239.274666 2.048 170.666667 170.666667 0 0 0-2.090667 239.232zM255.872 654.933333A42.666667 42.666667 0 1 0 299.52 581.546667 416 416 0 0 1 128 384.042667a416 416 0 0 1 428.074667-253.738667 416.085333 416.085333 0 0 1 167.936 55.722667 42.666667 42.666667 0 0 0 43.52-73.386667 501.418667 501.418667 0 0 0-189.013334-65.536l-13.397333-1.621333A501.418667 501.418667 0 0 0 48.512 352.853333c-0.213333 0.426667-0.384 0.981333-0.554667 1.450667a85.333333 85.333333 0 0 0 0 59.349333l0.554667 1.450667a501.333333 501.333333 0 0 0 207.36 239.786667zM55.168 840.832a42.666667 42.666667 0 0 0 60.330667 0l853.333333-853.333333a42.666667 42.666667 0 0 0-60.330667-60.330667l-853.333333 853.333333a42.666667 42.666667 0 0 0 0 60.330667z"  horiz-adv-x="1024" />
      
      <glyph glyph-name="right" unicode="&#58918;" d="M810.666667 426.666667a42.666667 42.666667 0 1 0 0-85.333334H213.333333a42.666667 42.666667 0 1 0 0 85.333334h597.333334zM481.834667 712.832a42.666667 42.666667 0 0 0 60.330666 0l298.666667-298.666667a42.666667 42.666667 0 0 0 0-60.330666l-298.666667-298.666667a42.666667 42.666667 0 1 0-60.330666 60.330667L750.336 384l-268.501333 268.501333a42.666667 42.666667 0 0 0 0 60.330667z"  horiz-adv-x="1024" />
      
      <glyph glyph-name="a-NodeDeployment" unicode="&#58913;" d="M767.274667 384c0 22.912 5.546667 45.44 16.085333 65.749333l4.181333 7.509334a142.506667 142.506667 0 0 0 40.064 43.178666l4.138667 3.285334a57.173333 57.173333 0 0 1-61.056 95.232 142.506667 142.506667 0 0 0-201.770667 116.778666v0.042667a57.173333 57.173333 0 0 1-113.792-0.256 43.733333 43.733333 0 0 0-0.64-4.266667 142.421333 142.421333 0 0 0-70.144-106.368 142.506667 142.506667 0 0 0-131.413333-5.76v0.042667a57.173333 57.173333 0 0 1-56.490667-98.730667 142.506667 142.506667 0 0 0-0.042666-232.789333v-0.085333a57.173333 57.173333 0 0 1 15.872-100.906667l5.12-1.365333c12.032-2.645333 24.661333-1.365333 35.925333 3.754666a142.421333 142.421333 0 0 0 66.048 13.056l8.533333-0.64a142.421333 142.421333 0 0 0 100.608-58.026666l4.821334-7.082667c12.288-19.2 19.712-41.088 21.76-63.829333a57.216 57.216 0 0 1 113.877333 0 142.464 142.464 0 0 0 63.402667 106.069333l7.296 4.565333a142.506667 142.506667 0 0 0 130.986666 5.888l4.949334-1.962666c11.648-4.053333 24.32-4.224 36.138666-0.426667l5.034667 1.877333a57.258667 57.258667 0 0 1 33.450667 64.64 57.173333 57.173333 0 0 1-22.613334 34.389334v0.085333A142.549333 142.549333 0 0 0 767.274667 384z m85.333333 0a57.258667 57.258667 0 0 1 24.32-46.805333l0.341333-0.213334a142.506667 142.506667 0 0 0 46.506667-175.36l-6.058667-11.776a142.506667 142.506667 0 0 0-67.498666-59.818666l-12.373334-4.608a142.506667 142.506667 0 0 0-102.4 5.973333l-0.426666 0.128a57.173333 57.173333 0 0 1-52.736-2.261333v-0.042667c-5.973333-3.413333-11.221333-7.936-15.573334-13.226667l-4.053333-5.546666a57.173333 57.173333 0 0 1-8.746667-25.685334v-0.298666a142.506667 142.506667 0 0 0-283.733333 0l-0.042667 0.298666a57.173333 57.173333 0 0 1-47.616 51.370667l-6.826666 0.725333a57.088 57.088 0 0 1-26.666667-5.333333l-0.426667-0.128A142.506667 142.506667 0 0 0 113.493333 138.666667l-7.125333 11.093333a142.506667 142.506667 0 0 0 40.405333 187.178667l0.341334 0.213333a57.258667 57.258667 0 0 1 0 93.610667l-0.384 0.298666a142.506667 142.506667 0 0 0 129.578666 250.453334l12.288-4.864 0.426667-0.213334a57.173333 57.173333 0 0 1 81.066667 46.805334 43.093333 43.093333 0 0 0 0.768 5.205333 142.421333 142.421333 0 0 0 281.216 8.192l1.877333-13.141333v-0.256a57.258667 57.258667 0 0 1 81.109333-46.805334l0.426667 0.170667a142.506667 142.506667 0 0 0 102.4 5.973333l12.373333-4.608a142.506667 142.506667 0 0 0 85.589334-148.138666l-2.176-13.056a142.592 142.592 0 0 0-56.32-85.76l-0.341334-0.256h-0.042666a57.258667 57.258667 0 0 1-24.32-46.805334zM597.333333 384a85.333333 85.333333 0 1 1-170.666666 0 85.333333 85.333333 0 0 1 170.666666 0z m85.333334 0a170.666667 170.666667 0 1 0-341.333334 0 170.666667 170.666667 0 0 0 341.333334 0z"  horiz-adv-x="1024" />
      
      <glyph glyph-name="a-SubstationStandards" unicode="&#58919;" d="M128 42.666667V725.333333a128 128 0 0 0 128 128h341.333333v-0.042666a145.066667 145.066667 0 0 0 102.869334-42.581334l153.002666-153.002666 4.949334-5.162667A145.152 145.152 0 0 0 896 554.666667v-512a128 128 0 0 0-128-128H256a128 128 0 0 0-128 128z m85.333333 0a42.666667 42.666667 0 0 1 42.666667-42.666667h512a42.666667 42.666667 0 0 1 42.666667 42.666667V554.752a59.946667 59.946667 0 0 1-17.621334 42.453333l-153.173333 153.173334h-0.085333A59.690667 59.690667 0 0 1 597.418667 768H256a42.666667 42.666667 0 0 1-42.666667-42.666667v-682.666666zM554.666667 597.333333V810.666667a42.666667 42.666667 0 1 0 85.333333 0v-213.333334h213.333333a42.666667 42.666667 0 1 0 0-85.333333h-213.333333a85.333333 85.333333 0 0 0-85.333333 85.333333zM393.344 389.333333a42.666667 42.666667 0 0 0 66.645333-53.333333L395.989333 256l64-80a42.666667 42.666667 0 0 0-66.645333-53.333333l-85.333333 106.666666a42.666667 42.666667 0 0 0 0 53.333334l85.333333 106.666666zM570.666667 395.946667a42.666667 42.666667 0 0 0 59.989333-6.613334l85.333333-106.666666c12.458667-15.616 12.458667-37.76 0-53.333334l-85.333333-106.666666a42.666667 42.666667 0 0 0-66.645333 53.333333l64 80-64 80a42.666667 42.666667 0 0 0 6.656 59.989333z"  horiz-adv-x="1024" />
      
      <glyph glyph-name="a-TrueP2Pnetwork" unicode="&#58920;" d="M853.333333 682.666667a85.333333 85.333333 0 1 1-170.666666 0 85.333333 85.333333 0 0 1 170.666666 0z m85.333334 0a170.666667 170.666667 0 1 0-341.333334 0 170.666667 170.666667 0 0 0 341.333334 0zM341.333333 384a85.333333 85.333333 0 1 1-170.666666 0 85.333333 85.333333 0 0 1 170.666666 0z m85.333334 0a170.666667 170.666667 0 1 0-341.333334 0 170.666667 170.666667 0 0 0 341.333334 0zM853.333333 85.333333a85.333333 85.333333 0 1 1-170.666666 0 85.333333 85.333333 0 0 1 170.666666 0z m85.333334 0a170.666667 170.666667 0 1 0-341.333334 0 170.666667 170.666667 0 0 0 341.333334 0zM329.642667 341.077333a42.666667 42.666667 0 0 0 58.368 15.36l291.370666-169.813333a42.666667 42.666667 0 1 0-42.965333-73.728l-291.413333 169.813333a42.666667 42.666667 0 0 0-15.36 58.368zM635.989333 655.104a42.666667 42.666667 0 1 0 43.008-73.685333l-290.986666-169.813334a42.666667 42.666667 0 0 0-43.008 73.685334l290.986666 169.813333z"  horiz-adv-x="1024" />
      
      <glyph glyph-name="a-UseWithoutRegistration" unicode="&#58921;" d="M287.616 204.885333a32 32 0 0 0 45.226667 0A735.957333 735.957333 0 0 1 853.333333-10.666667 53.333333 53.333333 0 0 1 906.666667 42.666667v128A53.376 53.376 0 0 1 853.333333 224h-128a53.333333 53.333333 0 0 1-42.666666-21.333333l-0.213334-0.213334-15.104-19.797333a74.666667 74.666667 0 0 0-91.306666-22.272 629.418667 629.418667 0 0 0-167.765334 119.893333 32 32 0 0 0 45.226667 45.269334 565.248 565.248 0 0 1 150.272-107.477334c2.133333-0.896 4.48-1.109333 6.741333-0.554666l1.706667 0.597333a10.666667 10.666667 0 0 1 4.224 3.285333l15.146667 19.882667A117.333333 117.333333 0 0 0 725.333333 288h128A117.333333 117.333333 0 0 0 970.666667 170.666667v-128A117.376 117.376 0 0 0 853.333333-74.666667 800.042667 800.042667 0 0 0 287.573333 159.573333a32 32 0 0 0 0 45.269334zM916.053333 833.28a32 32 0 0 0 45.226667-45.226667l-853.333333-853.333333a32 32 0 0 0-45.226667 45.226667l853.333333 853.333333zM352 597.333333V725.333333A53.333333 53.333333 0 0 1 298.666667 778.666667H170.666667A53.333333 53.333333 0 0 1 117.333333 725.333333c-0.042667-138.624 39.082667-274.432 112.810667-391.808a32 32 0 0 0-54.186667-34.048A800.085333 800.085333 0 0 0 53.333333 725.333333 117.333333 117.333333 0 0 0 170.666667 842.666667h128A117.376 117.376 0 0 0 416 725.333333v-128a117.333333 117.333333 0 0 0-46.933333-93.866666l-19.968-14.976a10.666667 10.666667 0 0 1-2.901334-12.970667c3.114667-6.4 6.4-12.714667 9.813334-18.986667a32 32 0 0 0-56.32-30.421333c-3.84 6.997333-7.466667 14.08-10.965334 21.248l-0.085333 0.085333a74.666667 74.666667 0 0 0-5.546667 49.92l1.792 6.186667a74.666667 74.666667 0 0 0 25.6 35.968l0.213334 0.170667L330.666667 554.666667a53.333333 53.333333 0 0 1 21.333333 42.666666z"  horiz-adv-x="1024" />
      
      <glyph glyph-name="a-NophonenumberemailKYC" unicode="&#58922;" d="M640 0v85.333333a128 128 0 0 1-128 128H256a128 128 0 0 1-128-128v-85.333333a42.666667 42.666667 0 1 0-85.333333 0v85.333333a213.333333 213.333333 0 0 0 213.333333 213.333334h256a213.333333 213.333333 0 0 0 213.333333-213.333334v-85.333333a42.666667 42.666667 0 1 0-85.333333 0zM512 597.333333a128 128 0 1 1-256 0 128 128 0 0 1 256 0z m85.333333 0A213.333333 213.333333 0 1 0 170.666667 597.333333a213.333333 213.333333 0 0 0 426.666666 0zM695.168 584.832a42.666667 42.666667 0 0 0 60.330667 0l213.333333-213.333333a42.666667 42.666667 0 0 0-60.330667-60.330667l-213.333333 213.333333a42.666667 42.666667 0 0 0 0 60.330667zM908.501333 584.832a42.666667 42.666667 0 1 0 60.330667-60.330667l-213.333333-213.333333a42.666667 42.666667 0 1 0-60.330667 60.330667l213.333333 213.333333z"  horiz-adv-x="1024" />
      
      <glyph glyph-name="a-JointheDeveloperCommunity" unicode="&#58912;" d="M640 0v85.333333a128 128 0 0 1-128 128H256a128 128 0 0 1-128-128v-85.333333a42.666667 42.666667 0 1 0-85.333333 0v85.333333a213.333333 213.333333 0 0 0 213.333333 213.333334h256a213.333333 213.333333 0 0 0 213.333333-213.333334v-85.333333a42.666667 42.666667 0 1 0-85.333333 0zM767.829333 597.333333a128 128 0 0 1-95.872 123.989334 42.666667 42.666667 0 0 0 21.418667 82.56 213.333333 213.333333 0 0 0 0-413.013334 42.666667 42.666667 0 0 0-21.418667 82.602667 128.085333 128.085333 0 0 1 95.872 123.904zM896 0v85.333333l-0.426667 10.581334a128 128 0 0 1-95.573333 113.237333 42.666667 42.666667 0 0 0 21.333333 82.645333A213.333333 213.333333 0 0 0 981.333333 85.376v-85.333333a42.666667 42.666667 0 1 0-85.333333 0zM512 597.333333a128 128 0 1 1-256 0 128 128 0 0 1 256 0z m85.333333 0A213.333333 213.333333 0 1 0 170.666667 597.333333a213.333333 213.333333 0 0 0 426.666666 0z"  horiz-adv-x="1024" />
      
      <glyph glyph-name="a-CocoCatSDK" unicode="&#58923;" d="M512 853.248c22.4 0 44.373333-5.930667 63.786667-17.066667h0.042666l298.666667-170.666666 0.170667-0.085334A128 128 0 0 0 938.666667 554.666667v-341.418667a128 128 0 0 0-64-110.72l-0.170667-0.128-298.666667-170.666667v0.042667a128 128 0 0 0-127.658666 0l-298.666667 170.666667-0.170667 0.085333A128 128 0 0 0 85.333333 213.333333V554.709333l0.298667 8.405334A128 128 0 0 0 149.333333 665.429333l0.170667 0.128 298.666667 170.666667v-0.042667a128 128 0 0 0 63.829333 17.066667z m0-85.333333a42.666667 42.666667 0 0 1-21.333333-5.717334l-0.170667-0.085333L192 591.573333H192a42.794667 42.794667 0 0 1-21.333333-36.949333v-341.248l0.384-5.546667a42.666667 42.666667 0 0 1 20.778666-31.232l298.666667-170.666666 0.170667-0.128a42.709333 42.709333 0 0 1 42.666666 0l0.170667 0.128 298.666667 170.666666a42.581333 42.581333 0 0 1 15.402666 15.488h0.042667A42.666667 42.666667 0 0 1 853.333333 213.333333V554.624a42.666667 42.666667 0 0 1-21.333333 36.906667v0.042666l-298.496 170.538667-0.170667 0.085333a42.666667 42.666667 0 0 1-21.333333 5.717334zM861.952 634.325333a42.666667 42.666667 0 0 0 42.538667-73.984l-371.2-213.333333a42.666667 42.666667 0 0 0-42.496 0l-371.2 213.333333a42.666667 42.666667 0 0 0 42.496 73.984L512 433.237333l349.952 201.088zM469.333333-42.666667V384a42.666667 42.666667 0 1 0 85.333334 0v-426.666667a42.666667 42.666667 0 1 0-85.333334 0z"  horiz-adv-x="1024" />
      
      <glyph glyph-name="a-QuickStart" unicode="&#58924;" d="M256.128 256.426667a135.722667 135.722667 0 0 0 80.085333-29.226667l9.386667-8.234667 0.512-0.469333c50.688-50.048 50.048-130.346667 6.528-181.930667v-0.042666c-18.858667-22.485333-44.885333-38.997333-69.930667-51.2-25.514667-12.501333-53.034667-21.973333-77.781333-29.056a739.669333 739.669333 0 0 0-90.282667-19.626667l-1.664-0.213333-0.426666-0.085334h-0.213334a42.666667 42.666667 0 0 0-47.957333 47.914667l42.282667-5.589333-42.282667 5.632v0.042666 0.170667l0.085333 0.426667 0.256 1.621333 0.853334 5.717333a739.242667 739.242667 0 0 0 18.688 84.565334c7.082667 24.746667 16.597333 52.309333 29.056 77.824 12.245333 25.045333 28.714667 51.072 51.2 69.973333a135.68 135.68 0 0 0 91.605333 31.786667z m-2.645333-85.290667a50.346667 50.346667 0 0 1-33.962667-11.776l-0.042667-0.042667c-9.514667-7.978667-19.712-22.101333-29.44-42.112a397.44 397.44 0 0 1-23.68-63.829333c-2.005333-6.997333-3.84-13.909333-5.461333-20.48 6.613333 1.621333 13.525333 3.413333 20.565333 5.418667a397.226667 397.226667 0 0 1 63.786667 23.68c20.010667 9.770667 34.133333 19.882667 42.069333 29.397333l0.085334 0.128c16.938667 20.053333 15.488 49.621333-1.109334 66.133333a50.346667 50.346667 0 0 1-32.810666 13.482667zM938.922667 853.333333A42.666667 42.666667 0 0 0 981.333333 810.666667c0-124.416-36.266667-344.746667-274.901333-504.789334l-0.981333-0.64a996.010667 996.010667 0 0 0-178.261334-89.130666 42.666667 42.666667 0 0 0-45.354666 9.728l-128 128a42.666667 42.666667 0 0 0-9.642667 45.482666 981.589333 981.589333 0 0 0 89.216 176.213334 592.298667 592.298667 0 0 0 505.514667 277.76z m-44.714667-87.04a506.837333 506.837333 0 0 1-388.693333-236.373333l-0.256-0.426667a896.426667 896.426667 0 0 1-71.125334-135.296l88.149334-88.149333a910.208 910.208 0 0 1 137.045333 71.04c180.266667 121.045333 226.133333 279.381333 234.88 389.205333zM314.538667 616.618667a366.848 366.848 0 0 0 79.488-2.346667 562.517333 562.517333 0 0 0 86.101333-18.304l1.493333-0.426667 0.426667-0.128 0.170667-0.042666 0.085333-0.042667-10.453333-32.725333 10.496 32.725333a42.666667 42.666667 0 0 0-26.026667-81.237333h-0.128c-0.170667 0-0.469333 0.128-0.896 0.256l-4.053333 1.237333a477.952 477.952 0 0 1-68.138667 14.08 282.410667 282.410667 0 0 1-60.629333 1.962667c-19.456-1.834667-33.621333-6.357333-42.794667-12.458667-18.56-12.458667-36.096-43.093333-49.450667-79.872-1.536-4.266667-2.986667-8.533333-4.309333-12.586667H384a42.666667 42.666667 0 0 0 0-85.333333H170.666667a42.666667 42.666667 0 0 0-41.984 50.218667l41.984-7.552-41.941334 7.594666v0.213334c0 0.128 0 0.256 0.085334 0.426666l0.256 1.365334 0.981333 4.821333a539.776 539.776 0 0 0 20.010667 69.930667c13.824 38.144 38.912 92.8 82.218666 121.770666h0.042667c25.386667 16.896 55.168 23.893333 82.218667 26.453334zM669.653333 381.952a42.666667 42.666667 0 0 0 53.632-27.605333L682.666667 341.333333l40.661333 12.970667v-0.085333l0.042667-0.128 0.170666-0.426667a193.792 193.792 0 0 0 2.048-6.912 563.114667 563.114667 0 0 0 16.64-80.725333c3.157333-24.192 4.906667-52.053333 2.346667-79.488-2.517333-27.050667-9.472-56.832-26.410667-82.218667-29.013333-43.306667-83.626667-68.437333-121.813333-82.261333a540.928 540.928 0 0 0-69.888-20.010667l-4.821333-0.938667-1.408-0.298666-0.426667-0.085334h-0.170667v-0.042666A42.666667 42.666667 0 0 0 469.333333 42.666667v213.333333a42.666667 42.666667 0 1 0 85.333334 0v-158.037333c4.096 1.322667 8.32 2.730667 12.586666 4.266666 36.821333 13.397333 67.541333 30.933333 79.957334 49.493334 6.101333 9.173333 10.624 23.338667 12.416 42.752a282.794667 282.794667 0 0 1-2.005334 60.672 478.208 478.208 0 0 1-14.08 68.096l-1.194666 4.053333-0.256 0.938667-0.085334 0.128a42.666667 42.666667 0 0 0 27.648 53.589333z"  horiz-adv-x="1024" />
      
      <glyph glyph-name="a-CocoPayAPI" unicode="&#58925;" d="M896 597.333333a42.666667 42.666667 0 0 1-42.666667 42.666667H170.666667a42.666667 42.666667 0 0 1-42.666667-42.666667v-426.666666a42.666667 42.666667 0 0 1 42.666667-42.666667h682.666666a42.666667 42.666667 0 0 1 42.666667 42.666667V597.333333z m85.333333-426.666666a128 128 0 0 0-128-128H170.666667a128 128 0 0 0-128 128V597.333333a128 128 0 0 0 128 128h682.666666a128 128 0 0 0 128-128v-426.666666zM938.666667 512a42.666667 42.666667 0 1 0 0-85.333333H85.333333a42.666667 42.666667 0 1 0 0 85.333333h853.333334z"  horiz-adv-x="1024" />
      
      <glyph glyph-name="GitBook" unicode="&#58926;" d="M443.733333 362.666667c42.666667-25.6 64-38.4 89.6-38.4 25.6 0 46.933333 12.8 89.6 38.4L896 520.533333c12.8 8.533333 21.333333 21.333333 21.333333 34.133334 0 12.8-8.533333 29.866667-21.333333 38.4l-277.333333 157.866666c-42.666667 25.6-64 38.4-89.6 38.4-25.6 0-46.933333-12.8-89.6-38.4L204.8 614.4s-4.266667 0-4.266667-4.266667c-81.066667-46.933333-132.266667-136.533333-132.266666-230.4v-8.533333c0-93.866667 51.2-179.2 132.266666-230.4l4.266667-4.266667 149.333333-85.333333c85.333333-51.2 132.266667-76.8 179.2-76.8s89.6 25.6 179.2 76.8l157.866667 89.6c42.666667 25.6 64 38.4 76.8 59.733333 12.8 21.333333 12.8 46.933333 12.8 98.133334v98.133333c0 12.8-8.533333 25.6-21.333333 34.133333-12.8 8.533333-25.6 8.533333-38.4 0l-324.266667-187.733333c-21.333333-12.8-34.133333-17.066667-42.666667-17.066667-12.8 0-21.333333 4.266667-42.666666 17.066667l-217.6 128c-17.066667 8.533333-21.333333 8.533333-25.6 12.8-8.533333 0-21.333333-4.266667-25.6-12.8v-38.4c0-8.533333 8.533333-17.066667 12.8-25.6 4.266667-8.533333 8.533333-8.533333 17.066666-17.066667l234.666667-136.533333c21.333333-12.8 34.133333-17.066667 42.666667-17.066667 12.8 0 21.333333 4.266667 42.666666 17.066667l285.866667 166.4c8.533333 4.266667 12.8 8.533333 12.8 4.266667 4.266667 0 4.266667-4.266667 4.266667-12.8v-42.666667c0-12.8 0-17.066667-4.266667-25.6-4.266667-4.266667-8.533333-8.533333-21.333333-12.8l-234.666667-136.533333c-42.666667-25.6-64-38.4-89.6-38.4-25.6 0-46.933333 12.8-89.6 38.4l-221.866667 128c-42.666667 25.6-68.266667 76.8-68.266666 132.266666v42.666667c0 29.866667 17.066667 55.466667 42.666666 72.533333 21.333333 12.8 51.2 12.8 72.533334 0l183.466666-106.666666z"  horiz-adv-x="1024" />
      
      <glyph glyph-name="RelayBridge" unicode="&#58927;" d="M695.125333 840.832a42.666667 42.666667 0 0 0 60.373334 0l170.666666-170.666667a42.666667 42.666667 0 0 0 0-60.330666l-170.666666-170.666667a42.666667 42.666667 0 0 0-60.373334 60.330667L835.626667 640l-140.501334 140.458667a42.666667 42.666667 0 0 0 0 60.373333zM85.333333 426.666667v42.666666a213.333333 213.333333 0 0 0 213.333334 213.333334h597.333333a42.666667 42.666667 0 0 0 0-85.333334H298.666667a128 128 0 0 1-128-128v-42.666666a42.666667 42.666667 0 0 0-85.333334 0zM268.501333 328.832a42.666667 42.666667 0 1 0 60.330667-60.330667L188.330667 128l140.501333-140.544a42.666667 42.666667 0 1 0-60.330667-60.330667l-170.666666 170.666667a42.666667 42.666667 0 0 0 0 60.330667l170.666666 170.666666zM853.333333 298.666667v42.666666a42.666667 42.666667 0 0 0 85.333334 0v-42.666666a213.333333 213.333333 0 0 0-213.333334-213.333334H128a42.666667 42.666667 0 0 0 0 85.333334h597.333333a128.042667 128.042667 0 0 1 128 128z"  horiz-adv-x="1024" />
      
      <glyph glyph-name="a-SubstationHub" unicode="&#58928;" d="M170.752 341.333333H469.333333a85.333333 85.333333 0 0 0 82.901334-64.554666l1.92-10.112 0.64-10.325334c0.042667-9.557333-1.664-19.072-4.778667-28.16l0.085333-0.085333-54.101333-169.429333L853.248 426.666667H554.666667V426.666667a85.248 85.248 0 0 0-63.786667 28.416l-6.4 8.106666c-5.888 8.490667-10.24 17.92-12.714667 27.946667l-1.92 10.112a85.376 85.376 0 0 0 4.096 38.570667l54.016 169.514666-357.205333-368.085333zM853.333333 512a85.333333 85.333333 0 0 0 63.914667-141.952l-422.4-435.2-0.042667 0.042667a63.914667 63.914667 0 0 0-105.557333 18.432 64 64 0 0 0-2.858667 42.197333l0.426667 1.621333 81.962667 256.853334 0.682666 1.962666H170.666667V256c-14.08 0-27.946667 3.413333-40.32 10.026667l-5.205334 3.029333a85.418667 85.418667 0 0 0-20.906666 125.994667l2.517333 2.858666 422.4 435.2v-0.042666a64 64 0 0 0 35.114667 19.285333l5.376 0.768a64 64 0 0 0 31.573333-4.906667l4.906667-2.346666 4.650666-2.773334a64 64 0 0 0 26.325334-72.277333l-81.92-256.853333c-0.170667-0.64-0.426667-1.28-0.682667-1.962667H853.333333z"  horiz-adv-x="1024" />
      
      <glyph glyph-name="a-Decentralizedidentity" unicode="&#58929;" d="M810.666667 640c-98.986667 0-214.613333 57.045333-293.973334 126.293333l-2.176 1.28a7.296 7.296 0 0 1-7.168-1.194666C428.416 697.6 312.362667 640 213.290667 640v-298.666667c0-95.402667 32.938667-164.778667 84.821333-217.898666 46.378667-47.530667 109.482667-83.541333 182.058667-111.658667l31.658666-11.52 0.981334-0.384c85.546667 29.866667 160.170667 69.205333 213.077333 123.52C777.813333 176.597333 810.666667 245.930667 810.666667 341.333333V640z m85.333333-298.666667c0-117.930667-41.813333-208.554667-109.013333-277.504-66.005333-67.712-154.666667-112.64-246.442667-144.64l-0.341333-0.170666c-18.602667-6.272-38.826667-5.973333-57.173334 0.853333v0.128c-91.733333 31.744-180.096 76.373333-245.973333 143.829333C169.770667 132.736 128 223.402667 128 341.333333V640a85.333333 85.333333 0 0 0 85.333333 85.333333c71.509333 0 168.618667 44.714667 238.165334 105.514667l0.341333 0.341333v-0.042666a92.629333 92.629333 0 0 0 113.792 5.12l6.528-5.12 0.341333-0.298667C642.474667 769.664 739.114667 725.333333 810.666667 725.333333c22.613333 0 44.330667-8.96 60.330666-25.002666l5.674667-6.229334c12.416-15.189333 19.328-34.304 19.328-54.101333v-298.666667z"  horiz-adv-x="1024" />
      
      <glyph glyph-name="a-P2PSecureMessaging" unicode="&#58930;" d="M896 682.666667a42.709333 42.709333 0 0 1-42.666667 42.666666H170.666667a42.752 42.752 0 0 1-42.666667-42.666666v-665.002667l72.832 72.832a128 128 0 0 0 90.538667 37.546667H853.333333a42.666667 42.666667 0 0 1 30.165334 12.458666l2.858666 3.157334A42.624 42.624 0 0 1 896 170.666667V682.666667z m85.333333-512a128 128 0 0 0-128-128H291.413333a42.666667 42.666667 0 0 1-30.165333-12.501334L167.253333-63.786667h-0.042666a72.96 72.96 0 0 0-37.290667-19.925333h-0.085333a72.96 72.96 0 0 0-87.125334 71.552V682.666667a128.042667 128.042667 0 0 0 128 128h682.666667a128 128 0 0 0 128-128v-512z"  horiz-adv-x="1024" />
      
      <glyph glyph-name="CocoGames" unicode="&#58931;" d="M426.666667 469.333333a42.666667 42.666667 0 0 0 0-85.333333H256a42.666667 42.666667 0 0 0 0 85.333333h170.666667zM298.666667 341.333333V512a42.666667 42.666667 0 0 0 85.333333 0v-170.666667a42.666667 42.666667 0 0 0-85.333333 0zM640.426667 426.666667a42.666667 42.666667 0 0 0 0-85.333334H640a42.666667 42.666667 0 0 0 0 85.333334h0.426667zM768.426667 512a42.666667 42.666667 0 0 0 0-85.333333H768a42.666667 42.666667 0 0 0 0 85.333333h0.426667zM604.672 256l6.314667-0.170667a128 128 0 0 0 84.181333-37.376l60.330667-60.288c20.906667-20.906667 31.232-30.165333 55.125333-30.208A85.333333 85.333333 0 0 1 896 213.333333c0 62.634667-25.216 274.048-28.885333 304.554667V517.973333a150.186667 150.186667 0 0 0-0.426667 3.84l-0.341333 2.688a128 128 0 0 1-115.541334 114.986667l-11.818666 0.512H285.013333a128 128 0 0 1-127.274666-114.858667l-0.042667-0.512c-0.042667-0.298667-0.512-4.949333-0.853333-7.381333C152.874667 484.224 128 275.456 128 213.333333a85.333333 85.333333 0 0 1 85.333333-85.333333c23.893333 0 34.261333 9.258667 55.168 30.165333l60.330667 60.288a128 128 0 0 0 90.453333 37.546667h185.386667zM981.333333 213.333333a170.666667 170.666667 0 0 0-170.666666-170.666666c-61.44 0-93.738667 33.365333-115.541334 55.168l-60.288 60.330666a42.666667 42.666667 0 0 1-25.984 12.288L604.629333 170.666667H419.328a42.666667 42.666667 0 0 1-30.208-12.501334l-60.288-60.330666C307.072 76.074667 274.730667 42.666667 213.333333 42.666667a170.666667 170.666667 0 0 0-170.666666 170.666666c0 69.162667 26.282667 287.744 29.525333 314.752l0.085333 0.725334c0.256 1.834667 0.128 1.237333 0.597334 5.546666A213.333333 213.333333 0 0 0 285.013333 725.333333h453.973334a213.376 213.376 0 0 0 212.053333-190.890666l0.64-5.504 0.085333-0.853334c3.242667-27.008 29.568-245.546667 29.568-314.752z"  horiz-adv-x="1024" />
      
      <glyph glyph-name="a-Securitydesignedforthefuture" unicode="&#58932;" d="M810.666667 640c-98.986667 0-214.613333 57.045333-293.973334 126.293333a7.253333 7.253333 0 0 1-9.386666-0.042666l-0.042667 0.042666C428.330667 697.514667 312.32 640 213.333333 640v-298.666667l0.384-17.578666c3.797333-86.4 35.754667-150.485333 84.352-200.277334 53.034667-54.357333 127.914667-93.610667 213.76-123.306666l0.981334-0.298667c85.546667 29.866667 160.170667 69.162667 213.12 123.52C777.770667 176.597333 810.666667 245.930667 810.666667 341.333333V640z m85.333333-298.666667c0-117.930667-41.770667-208.64-108.970667-277.546666-66.005333-67.754667-154.709333-112.64-246.485333-144.64l-0.341333-0.128a85.333333 85.333333 0 0 0-56.192 0.554666l-0.768 0.256-0.213334 0.042667v0.042667c-91.690667 31.744-180.096 76.458667-245.973333 143.914666-63.061333 64.597333-103.722667 148.309333-108.544 255.701334L128 341.333333V640a85.333333 85.333333 0 0 0 85.333333 85.333333c71.509333 0 168.618667 44.714667 238.165334 105.514667l0.384 0.256a92.586667 92.586667 0 0 0 120.234666 0l0.384-0.256C642.474667 769.664 739.114667 725.333333 810.666667 725.333333a85.333333 85.333333 0 0 0 85.333333-85.333333v-298.666667zM609.834667 499.498667a42.666667 42.666667 0 1 0 60.330666-60.330667l-170.666666-170.666667a42.666667 42.666667 0 0 0-60.330667 0l-85.333333 85.333334a42.666667 42.666667 0 1 0 60.330666 60.330666L469.333333 358.997333l140.501334 140.501334z"  horiz-adv-x="1024" />
      
      <glyph glyph-name="Network" unicode="&#58933;" d="M511.232 752.896c-203.562667 0-369.408-165.546667-369.408-369.408 0-203.52 165.546667-369.408 369.408-369.408s369.408 165.589333 369.408 369.408c0 203.861333-165.802667 369.408-369.408 369.408z m0-673.450667c-29.653333 0-68.693333 59.093333-89.301333 159.573334l178.346666-0.256c-20.309333-100.266667-59.349333-159.317333-89.045333-159.317334z m-98.901333 224.682667a769.962667 769.962667 0 0 0-3.925334 79.658667c0 29.397333 1.578667 57.258667 4.437334 83.285333l197.333333-0.256c2.858667-25.770667 4.181333-53.632 4.181333-83.072 0-28.373333-1.322667-54.912-3.925333-79.914667l-198.101333 0.256z m98.901333 383.701333c29.44 0 67.968-58.026667 88.533333-156.16l-177.066666 0.213334c20.608 98.133333 59.392 155.946667 88.533333 155.946666z m164.010667-221.269333l128.853333-0.256a299.946667 299.946667 0 0 0 11.477333-82.773333c0-27.861333-3.626667-54.698667-10.666666-80.213334l-129.152 0.256a861.013333 861.013333 0 0 1-0.512 162.986667z m101.802666 64.853333l-110.933333 0.213334c-6.997333 37.504-16.64 72.106667-28.885333 102.314666a300.202667 300.202667 0 0 1-15.36 33.066667 304.384 304.384 0 0 0 155.178666-135.637333zM400.597333 666.965333c-5.461333-10.154667-10.410667-21.333333-15.36-33.066666a536.490667 536.490667 0 0 1-28.885333-102.058667l-110.634667 0.256a306.773333 306.773333 0 0 0 154.88 134.869333z m-181.973333-199.936l128.597333-0.256a871.381333 871.381333 0 0 1-0.256-162.986666l-127.573333 0.256v-6.229334a300.117333 300.117333 0 0 0-12.202667 85.632 294.570667 294.570667 0 0 0 11.434667 83.584z m25.002667-227.797333l112.213333-0.256c6.997333-38.784 16.896-74.453333 29.44-105.685333 4.650667-11.946667 9.856-22.912 15.36-33.066667a305.92 305.92 0 0 0-157.013333 139.008z m378.24-139.008c5.504 10.154667 10.453333 21.333333 15.36 33.066667 12.501333 30.976 22.4 66.645333 29.44 105.173333l111.914666-0.256a305.706667 305.706667 0 0 0-156.714666-137.984z"  horiz-adv-x="1024" />
      
      <glyph glyph-name="Download" unicode="&#58934;" d="M469.333333 256V768a42.666667 42.666667 0 0 0 85.333334 0v-512a42.666667 42.666667 0 0 0-85.333334 0zM85.333333 85.290667v170.666666a42.666667 42.666667 0 0 0 85.333334 0v-170.666666A42.624 42.624 0 0 1 213.333333 42.666667h597.333334a42.752 42.752 0 0 1 42.666666 42.624v170.666666a42.666667 42.666667 0 0 0 85.333334 0v-170.666666a128.085333 128.085333 0 0 0-128-128H213.333333a128.085333 128.085333 0 0 0-128 128zM695.168 499.498667a42.666667 42.666667 0 0 0 60.330667-60.373334l-213.333334-213.333333a42.666667 42.666667 0 0 0-60.288 0l-213.376 213.333333a42.709333 42.709333 0 0 0 60.373334 60.373334L512 316.330667l183.168 183.168z"  horiz-adv-x="1024" />
      
      <glyph glyph-name="telegram_app" unicode="&#61348;" d="M835.733333 682.325333c35.989333 0 45.461333-27.221333 34.816-91.136-12.181333-73.088-47.274667-315.072-75.264-465.706666-10.709333-57.642667-30.016-82.496-58.112-82.496-15.445333 0-33.536 7.509333-54.314666 21.226666-28.16 18.602667-170.325333 112.618667-201.194667 134.698667-28.16 20.117333-67.008 44.330667-18.282667 91.989333 17.344 16.981333 130.986667 125.504 219.52 209.962667 9.450667 9.024 1.536 22.784-8.96 22.784a13.333333 13.333333 0 0 1-7.402666-2.368c-119.338667-79.146667-284.821333-188.992-305.877334-203.306667-21.056-14.293333-41.578667-23.466667-68.928-23.466666-13.973333 0-29.738667 2.389333-48.277333 7.722666-41.450667 11.904-81.92 26.090667-97.685333 31.509334-60.693333 20.821333-46.293333 47.808 12.650666 73.749333 236.330667 103.957333 542.144 230.72 584.362667 248.256 41.130667 17.088 71.68 26.581333 92.949333 26.581333m0 64c-29.184 0-64.32-9.408-117.461333-31.445333l-6.378667-2.645333C485.013333 618.026667 279.296 530.602667 132.650667 466.090667c-22.912-10.090667-92.608-40.746667-89.898667-104.874667 1.152-27.669333 16.384-65.386667 82.261333-87.978667l4.864-1.664c18.389333-6.336 56.682667-19.541333 95.936-30.826666 23.893333-6.869333 45.482667-10.197333 65.941334-10.197334a171.541333 171.541333 0 0 1 84.501333 21.930667 101.973333 101.973333 0 0 1 0.256-10.816c3.882667-49.322667 42.026667-76.373333 64.810667-92.544l3.178666-2.261333c33.642667-24.064 185.898667-124.650667 203.136-136.021334 32.448-21.418667 61.738667-31.808 89.578667-31.808 43.776 0 100.330667 23.381333 121.024 134.784 19.648 105.664 42.346667 253.269333 58.922667 361.045334 7.061333 45.994667 12.864 83.712 16.554666 105.834666 7.445333 44.672 10.858667 95.274667-20.224 131.946667-13.056 15.36-37.12 33.685333-77.76 33.685333z"  horiz-adv-x="1024" />
      
      <glyph glyph-name="tuite" unicode="&#58884;" d="M778.41 800h141.142L611.2 447.573 973.952-32H689.92L467.456 258.859 212.906-32H71.68l329.813 376.96L53.504 800h291.243l201.088-265.856z m-49.535-747.52h78.208L302.25 719.957h-83.926z"  horiz-adv-x="1024" />
      
    </font>
</defs>
</svg>
